Pages: (8) 1 [2] 3 4 .. 6 7 8  ( Show unread post )

>  Pinned: Музыка с файлообменников, (о разделе, обмен опытом, споры и предложения)
 retro Member is Offline
 Posted: 15-11-2006, 22:21 (post 16, #677274)

JazzMan

Group: News makers
Posts: 6282
Warn:0%-----
PM Email Poster Shared files
Top Bottom
 Zemlynin Member is Offline
 Posted: 15-11-2006, 23:54 (post 17, #677334)

***
Group: Privileged
Group: Privileged
Posts: 7222
Warn:0%-----
хочется сказать спасибо большое!
идея выдвигалась у нас давно,как альтернатива проблематичным е2к и торрент....думаю,что в этот раз получиться. :wink:

musicgate
а крроме джаза что то будет ? :rolleyes:
PM Users Website
Top Bottom
 retro Member is Offline
 Posted: 16-11-2006, 00:05 (post 18, #677341)

JazzMan

Group: News makers
Posts: 6282
Warn:0%-----
Zemlynin
QUOTE
musicgate
а крроме джаза что то будет ? :rolleyes:
:actu: Пока, надеюсь, что нет!!!! :w00t:

Конечно будет. Прог, авангард и фьюжн. Примерный репертуар мы уже согласовали :haha:

У меня много мягких вкусностей набралось, вот тоже буду осваивать новые технологии. :)
PM Email Poster Shared files
Top Bottom
 LF_ Member is Offline
 Posted: 16-11-2006, 00:22 (post 19, #677352)

Hand of Doom
Group: Roots
Group: Roots
Posts: 17384
Мысль, конечно, интересная - особенно если есть автоматический скрипт заливки. На Юсендере файлы жили неделю - это маловато было, а если там живет дольше - мысль интересная. Ибо скорости запредельные, конечно - это и есть самая большая проблема, если сливать файлы за 5 минут, то когда их слушать?! :lol: От осла я бы отходить не стал - все эти обменники сегодня есть завтра нет. Но плюсов много, особенно если давать линки только последующим зашаривателям в осле ;)

РапГет действительно мне нравится больше всех...
PM
Top Bottom
 retro Member is Offline
 Posted: 16-11-2006, 00:32 (post 20, #677357)

JazzMan

Group: News makers
Posts: 6282
Warn:0%-----
LF_
Более интересна другая мысль - кто-то еще будет заливать, кроме musicgate'а, как думаешь? :)
Ну и меня иногда... может быть...
И как сделать так, чтобы народ это дело начал поднимать?
Там в ISO-топике делают другую революцию :w00t: , они наверняка будут против...
(что-то пока никого из них не видно...)
PM Email Poster Shared files
Top Bottom
 LF_ Member is Offline
 Posted: 16-11-2006, 01:10 (post 21, #677372)

Hand of Doom
Group: Roots
Group: Roots
Posts: 17384
Я думаю что не будут :) Как показала практика - это мало удобно, в первую очередь заливающим - в осле положил, сам качаешь что тебе надо, раздаешь - все хорошо. А тут - надо нарезать, заливка обломилась, часть потерялась, часть не качается, нельзя удалять части ибо иначе чуть что - релиз помер и тп - это когда канал быстрый, тогда без проблем - но тогда и в осле без проблем. Сливающим тоже морока - обменники не дают (как правило) качать сразу и все - надо ждать, пока пустят. Я думаю, что это для мелких файлов хорошо, а как промышленное средство - не знаю. Практика покажет ;)
PM
Top Bottom
 FiL Member is Offline
 Posted: 16-11-2006, 01:30 (post 22, #677383)

Сварливый Мозг Клуба
Group: Roots
Group: Roots
Posts: 22764
QUOTE (Zemlynin @ 15-11-2006, 15:54)
хочется сказать спасибо большое!
идея выдвигалась у нас давно,как альтернатива проблематичным е2к и торрент....думаю,что в этот раз получиться. :wink:

musicgate
а крроме джаза что то будет ? :rolleyes:
Эээ... а чем это е2к и торрент проблематичные?
просто обменники, которые держат файлы от пары недель до месяца - это как-то очень смешно по сравнению с соседним топиком, где обсуждается как-бы увеличить живучесть линков в 3-х лет до 5.
PM Email Poster ICQ AOL MSN
Top Bottom
 Гордый Member is Offline
 Posted: 16-11-2006, 01:56 (post 23, #677386)

proRock
Group: Netlab Soldier
Group: Netlab Soldier
Posts: 24507
Warn:0%-----
Я так думаю что в топиках 42, 43, 44 уже всё сказано и мне добавить нечего! :drag:

И вообще я вот загрустил как-то, у кого деньги тот и говорит куда идти. Самая передовая технология по обмену информацией это Overdrive! :punk: Всё остальное это мышиная возня, контролируемая сильными мира! :nlo: Они по-этому этот проект закрыли... А мы (мышки) находим лазейки и дырочки и сразу нырк туда, а там ловушка! И время от времени дырки и ходы заделывают бетоном! :help:
PM
Top Bottom
 yury_usa Member is Offline
 Posted: 16-11-2006, 02:42 (post 24, #677396)

меломан

Group: Prestige
Posts: 18011
Warn:0%-----
я тоже могу заливать, например из универа, там АП высокий :)
PM
Top Bottom
 LF_ Member is Offline
 Posted: 16-11-2006, 04:02 (post 25, #677405)

Hand of Doom
Group: Roots
Group: Roots
Posts: 17384
наверное, имеет смысл заливать и раздавать ослом, в прошлый раз кое-кто сливал с обменников и помогал в осле, что удачно сказывается на всех :) Иначе очень жестоко - буквально моментально все пропадает...
PM
Top Bottom
 Гордый Member is Offline
 Posted: 16-11-2006, 05:49 (post 26, #677425)

proRock
Group: Netlab Soldier
Group: Netlab Soldier
Posts: 24507
Warn:0%-----
CODE
REM GENRE "Progressive Rock"
REM DATE 2006
REM DISCID 99102C0A
REM COMMENT "ExactAudioCopy v0.95b3"
PERFORMER "Rick Wakeman"
TITLE "Retro"
FILE "01 - Just Another Day.flac" WAVE
  TRACK 01 AUDIO
    TITLE "Just Another Day"
    PERFORMER "Rick Wakeman"
    FLAGS DCP
    INDEX 01 00:00:00
  TRACK 02 AUDIO
    TITLE "Mr. Lonely"
    PERFORMER "Rick Wakeman"
    FLAGS DCP
    INDEX 00 11:14:50
FILE "02 - Mr. Lonely.flac" WAVE
    INDEX 01 00:00:00
  TRACK 03 AUDIO
    TITLE "One In The Eye"
    PERFORMER "Rick Wakeman"
    FLAGS DCP
    INDEX 00 03:47:22
FILE "03 - One In The Eye.flac" WAVE
    INDEX 01 00:00:00
  TRACK 04 AUDIO
    TITLE "Men In Suits"
    PERFORMER "Rick Wakeman"
    FLAGS DCP
    INDEX 00 05:32:35
FILE "04 - Men In Suits.flac" WAVE
    INDEX 01 00:00:00
FILE "05 - Leave The Blindfold.flac" WAVE
  TRACK 05 AUDIO
    TITLE "Leave The Blindfold"
    PERFORMER "Rick Wakeman"
    FLAGS DCP
    INDEX 01 00:00:00
  TRACK 06 AUDIO
    TITLE "Waveform"
    PERFORMER "Rick Wakeman"
    FLAGS DCP
    INDEX 00 03:02:22
FILE "06 - Waveform.flac" WAVE
    INDEX 01 00:00:00
  TRACK 07 AUDIO
    TITLE "Retrospective"
    PERFORMER "Rick Wakeman"
    FLAGS DCP
    INDEX 00 06:01:30
FILE "07 - Retrospective.flac" WAVE
    INDEX 01 00:00:00
  TRACK 08 AUDIO
    TITLE "Homage To The Doctor"
    PERFORMER "Rick Wakeman"
    FLAGS DCP
    INDEX 00 06:35:18
FILE "08 - Homage To The Doctor.flac" WAVE
    INDEX 01 00:00:00
  TRACK 09 AUDIO
    TITLE "Can You Smell Burning?"
    PERFORMER "Rick Wakeman"
    FLAGS DCP
    INDEX 00 09:04:07
FILE "09 - Can You Smell Burning.flac" WAVE
    INDEX 01 00:00:00
  TRACK 10 AUDIO
    TITLE "The Stalker"
    PERFORMER "Rick Wakeman"
    FLAGS DCP
    INDEX 00 06:30:41
FILE "10 - The Stalker.flac" WAVE
    INDEX 01 00:00:00
Где-то я уже встречал такие кривые куи, мать их! :fu: Тут и yury_usa не поможет наверно. Буду ждать в ослосети нормального релиза или пойду и куплю! :rolleyes:
PM
Top Bottom
 yury_usa Member is Offline
 Posted: 16-11-2006, 06:14 (post 27, #677429)

меломан

Group: Prestige
Posts: 18011
Warn:0%-----
щас поможем, а в чем кривость?

если мой куй совпадет с прегапами в логе, значит 100% правильный
PM
Top Bottom
 Гордый Member is Offline
 Posted: 16-11-2006, 06:22 (post 28, #677430)

proRock
Group: Netlab Soldier
Group: Netlab Soldier
Posts: 24507
Warn:0%-----
Нет ты что шутишь, какие прегапы! Ты внимательно глянь. :bad1:
PM
Top Bottom
 yury_usa Member is Offline
 Posted: 16-11-2006, 06:47 (post 29, #677433)

меломан

Group: Prestige
Posts: 18011
Warn:0%-----
переделал куй для образа

REM GENRE "Progressive Rock"
REM DATE 2006
REM DISCID 99102C0A
REM COMMENT "ExactAudioCopy v0.95b3"
PERFORMER "Rick Wakeman"
TITLE "Retro"
FILE "_CDImage.flac" WAVE
TRACK 01 AUDIO
TITLE "Just Another Day"
PERFORMER "Rick Wakeman"
INDEX 01 00:00:00
TRACK 02 AUDIO
TITLE "Mr. Lonely"
PERFORMER "Rick Wakeman"
INDEX 00 11:14:50
INDEX 01 11:16:68
TRACK 03 AUDIO
TITLE "One In The Eye"
PERFORMER "Rick Wakeman"
INDEX 00 15:04:15
INDEX 01 15:07:10
TRACK 04 AUDIO
TITLE "Men In Suits"
PERFORMER "Rick Wakeman"
INDEX 00 20:39:45
INDEX 01 20:42:45
TRACK 05 AUDIO
TITLE "Leave The Blindfold"
PERFORMER "Rick Wakeman"
INDEX 01 28:47:63
TRACK 06 AUDIO
TITLE "Waveform"
PERFORMER "Rick Wakeman"
INDEX 00 31:50:10
INDEX 01 31:53:01
TRACK 07 AUDIO
TITLE "Retrospective"
PERFORMER "Rick Wakeman"
INDEX 00 37:54:31
INDEX 01 37:55:68
TRACK 08 AUDIO
TITLE "Homage To The Doctor"
PERFORMER "Rick Wakeman"
INDEX 00 44:31:11
INDEX 01 44:33:06
TRACK 09 AUDIO
TITLE "Can You Smell Burning?"
PERFORMER "Rick Wakeman"
INDEX 00 53:37:13
INDEX 01 53:37:65
TRACK 10 AUDIO
TITLE "The Stalker"
PERFORMER "Rick Wakeman"
INDEX 00 60:08:31
INDEX 01 60:11:13


лог
EAC extraction logfile from 10. April 2006, 19:37 for CD
Rick Wakeman / Retro

Used drive : PLEXTOR DVDR PX-740A Adapter: 3 ID: 0
Read mode : Secure with NO C2, accurate stream, disable cache
Read offset correction : 618
Overread into Lead-In and Lead-Out : No

Used output format : C:\Program Files\Monkey's Audio\MAC.exe (Monkey's Audio Lossless Encoder)
Extra High Lossless Compression

Other options :
Fill up missing offset samples with silence : Yes
Delete leading and trailing silent blocks : No
Installed external ASPI interface


Track 1
Filename F:\EAC-rip\Rick Wakeman - Retro\01 - Just Another Day.wav

Pre-gap length 0:00:02.00

Peak level 99.4 %
Track quality 100.0 %
Test CRC 3DCB9118
Copy CRC 3DCB9118
Copy OK

Track 2
Filename F:\EAC-rip\Rick Wakeman - Retro\02 - Mr. Lonely.wav

Pre-gap length 0:00:02.24

Peak level 99.4 %
Track quality 100.0 %
Test CRC DF28B64A
Copy CRC DF28B64A
Copy OK

Track 3
Filename F:\EAC-rip\Rick Wakeman - Retro\03 - One In The Eye.wav

Pre-gap length 0:00:02.93

Peak level 99.2 %
Track quality 100.0 %
Test CRC 4B4B74CF
Copy CRC 4B4B74CF
Copy OK

Track 4
Filename F:\EAC-rip\Rick Wakeman - Retro\04 - Men In Suits.wav

Pre-gap length 0:00:03.00

Peak level 99.4 %
Track quality 100.0 %
Test CRC D886C276
Copy CRC D886C276
Copy OK

Track 5
Filename F:\EAC-rip\Rick Wakeman - Retro\05 - Leave The Blindfold.wav

Peak level 85.1 %
Track quality 100.0 %
Test CRC 82782B38
Copy CRC 82782B38
Copy OK

Track 6
Filename F:\EAC-rip\Rick Wakeman - Retro\06 - Waveform.wav

Pre-gap length 0:00:02.88

Peak level 100.0 %
Track quality 100.0 %
Test CRC 232923B2
Copy CRC 232923B2
Copy OK

Track 7
Filename F:\EAC-rip\Rick Wakeman - Retro\07 - Retrospective.wav

Pre-gap length 0:00:01.49

Peak level 99.4 %
Track quality 100.0 %
Test CRC 6E846CFF
Copy CRC 6E846CFF
Copy OK

Track 8
Filename F:\EAC-rip\Rick Wakeman - Retro\08 - Homage To The Doctor.wav

Pre-gap length 0:00:01.93

Peak level 99.4 %
Track quality 100.0 %
Test CRC D9A361E1
Copy CRC D9A361E1
Copy OK

Track 9
Filename F:\EAC-rip\Rick Wakeman - Retro\09 - Can You Smell Burning .wav

Pre-gap length 0:00:00.69

Peak level 99.4 %
Track quality 100.0 %
Test CRC 86686637
Copy CRC 86686637
Copy OK

Track 10
Filename F:\EAC-rip\Rick Wakeman - Retro\10 - The Stalker.wav

Pre-gap length 0:00:02.76

Peak level 100.0 %
Track quality 99.9 %
Test CRC 562AE19D
Copy CRC 562AE19D
Copy OK

No errors occured


End of status report


как видно
QUOTE
TRACK 04 AUDIO
TITLE "Men In Suits"
PERFORMER "Rick Wakeman"
INDEX 00 20:39:45
INDEX 01 20:42:45

совпадает с

QUOTE
Track 4
Filename F:\EAC-rip\Rick Wakeman - Retro\04 - Men In Suits.wav

Pre-gap length 0:00:03.00

Peak level 99.4 %
Track quality 100.0 %
Test CRC D886C276
Copy CRC D886C276
Copy OK

итп :hi:
PM
Top Bottom
 musicgate Member is Offline
 Posted: 16-11-2006, 08:31 (post 30, #677447)

Member

Group: Members
Posts: 101
Warn:0%-----
QUOTE (Zemlynin)
а крроме джаза что то будет ?
QUOTE (retro)
Примерный репертуар мы уже согласовали
Парадом командует Ретро, а заливается оно для 2х форумов сразу, тут - третий

QUOTE (LF_)
На Юсендере файлы жили неделю - это маловато было, а если там живет дольше - мысль интересная
Чем больше народу скачивает, тем дольше живут ссылки, месяц то отсчитывается с последнего скачивания
Со сроком жизни в осле, конечно, не сравнить

QUOTE (LF_)
если давать линки только последующим зашаривателям в осле
- ссылки открыты всем, а вот последующие выкладки в осле я могу дублировать на двух других форумах, если будет на то разрешение

QUOTE (LF_)
обменники не дают (как правило) качать сразу и все - надо ждать, пока пустят
8 потоков с такой скоростью - совсем неплохо, но с файлообменниками нет постоянных решений, пока этот сервис хорош, загнется - будет другой

ну, а что касается куев - эти выкладки были сделаны ранее, а не специально, и копируют материал с Экс,,,го
С последующими буду разбираться на основе НетЛабовских требований к качеству, будет по уму
PM Email Poster
Top Bottom
Topic Options Pages: (8) 1 [2] 3 4 .. 6 7 8