50 cent - Get Rich or Die Tryin', eac/ape/rar
 Snt Member is Offline
 Posted: 04-12-2003, 23:25 (post 1, #201184)

Junior

Group: Members
Posts: 91
Warn:0%-----
Артист:50 cent
Альбом:Get Rich or Die Tryin', 2003
Жанр:East Coast Rap, Hardcore Rap
Формат файла:eac/ape/cue
Ссылка 1:CD 1 16 clicks
Ссылка 2:CD 2
Нахождение:eDonkey
Примечание:NNov/Razorback/S.E.D.G/Jika.net/Lovepoint.biz

Songs/Tracks:
01. Intro - 0:06
02. What Up Gangsta (Jackson/Tewlow) - 2:59
03. Patiently Waiting performed by Fifty Cent / Eminem - 4:48
04. Many Men (Wish Death) (Branch/Jackson/Resto) - 4:16
05. In da Club (Elizondo/Jackson/Young) - 3:13
06. High All the Time (Almonacy/Clervoix/Jackson/Mathers/Resto) - 4:29
07. Heat (Coster/Elizondo/Jackson/Young) - 4:14
08. If I Can't (Elizondo/Jackson/Young) - 3:16
09. Blood Hound performed by Fifty Cent / Young Buck - 4:00
10. Back Down (Elizondo/Feemster/Jackson/Young) - 4:03
11. P.I.M.P. (Jackson/Porter) - 4:09
12. Like My Style performed by Fifty Cent / Tony Yayo - 3:13
13. Poor Lil Rich (Clervoix/Jackson) - 3:19
14. 21 Questions performed by Fifty Cent / Nate Dogg - 3:44
15. Don't Push Me performed by Fifty Cent / Lloyd Banks / Eminem - 4:08
16. Gotta Make It to Heaven (Jackson/Wesley) - 4:00
17. Wanksta [*] (Clervoix/Freeman/Jackson) - 3:39
18. U Not Like Me [*] (Jackson/Thelusmay) - 4:15
19. Life's on the Line [*] (Dudley/Jackson) - 3:38

[*] - bonus cuts


Раздача с одного компьютера
Архив не переименовываем
Не будь чувырлой: скачал файл, подержи в расшарке
Предыдущий релиз (не мой) того же диска в mp3


PM Email Poster Shared files ICQ
Top Bottom
 Snt Member is Offline
 Posted: 25-11-2008, 00:29 (post 2, #867183)

Junior

Group: Members
Posts: 91
Warn:0%-----
CODE
CATALOG 0606949354428
PERFORMER "50 Cent"
TITLE "(2003) Get Rich or Die Tryin'"
FILE "50_Cent_-_2003Get_Rich_or_Die_Tryin'.ape" WAVE
  TRACK 01 AUDIO
    TITLE "50 Cent / Intro"
    PERFORMER "50 Cent"
    ISRC USIR10300015
    INDEX 01 00:00:00
  TRACK 02 AUDIO
    TITLE "50 Cent / What Up Gangsta"
    PERFORMER "50 Cent"
    ISRC USIR10300024
    INDEX 01 00:06:35
  TRACK 03 AUDIO
    TITLE "50 Cent / Eminem / Patiently Waiting"
    PERFORMER "50 Cent"
    ISRC USIR10300026
    INDEX 01 03:05:70
  TRACK 04 AUDIO
    TITLE "50 Cent / Many Men (Wish Death)"
    PERFORMER "50 Cent"
    ISRC USIR10300018
    INDEX 01 07:54:60
  TRACK 05 AUDIO
    TITLE "50 Cent / In Da Club"
    PERFORMER "50 Cent"
    ISRC USIR10300033
    INDEX 01 12:11:03
  TRACK 06 AUDIO
    TITLE "50 Cent / High All the Time"
    PERFORMER "50 Cent"
    ISRC USIR10300009
    INDEX 01 15:24:38
  TRACK 07 AUDIO
    TITLE "50 Cent / Heat"
    PERFORMER "50 Cent"
    ISRC USIR10300011
    INDEX 01 19:53:65
  TRACK 08 AUDIO
    TITLE "50 Cent / If I Can't"
    PERFORMER "50 Cent"
    ISRC USIR10300013
    INDEX 01 24:08:58
  TRACK 09 AUDIO
    TITLE "50 Cent / Young Buck / Blood Hound"
    PERFORMER "50 Cent"
    ISRC USIR10300004
    INDEX 01 27:25:30
  TRACK 10 AUDIO
    TITLE "50 Cent / Back Down"
    PERFORMER "50 Cent"
    ISRC USIR10211881
    INDEX 01 31:25:30
  TRACK 11 AUDIO
    TITLE "50 Cent / P.I.M.P."
    PERFORMER "50 Cent"
    ISRC USIR10300020
    INDEX 01 35:28:30
  TRACK 12 AUDIO
    TITLE "50 Cent / Tony Yayo / Like My Style"
    PERFORMER "50 Cent"
    ISRC USIR10300016
    INDEX 01 39:37:66
  TRACK 13 AUDIO
    TITLE "50 Cent / Poor Lil Rich"
    PERFORMER "50 Cent"
    ISRC USIR10300022
    INDEX 01 42:51:10
  TRACK 14 AUDIO
    TITLE "50 Cent / Nate Dogg / 21 Questions"
    PERFORMER "50 Cent"
    ISRC USIR10300002
    INDEX 01 46:10:25
  TRACK 15 AUDIO
    TITLE "50 Cent / Lloyd Banks / Eminem / Don't Push Me"
    PERFORMER "50 Cent"
    ISRC USIR10300006
    INDEX 01 49:54:58
  TRACK 16 AUDIO
    TITLE "50 Cent / Gotta Make It to Heaven"
    PERFORMER "50 Cent"
    ISRC USIR10300007
    INDEX 01 54:03:50
  TRACK 17 AUDIO
    TITLE "50 Cent / Wanksta"
    PERFORMER "50 Cent"
    ISRC USIR10211631
    INDEX 01 58:04:25
  TRACK 18 AUDIO
    TITLE "50 Cent / U Not Like Me"
    PERFORMER "50 Cent"
    ISRC USIR10300031
    INDEX 01 61:43:55
  TRACK 19 AUDIO
    TITLE "50 Cent / Life's on the Line"
    PERFORMER "50 Cent"
    ISRC USIR10300030
    INDEX 01 65:59:30
PM Email Poster Shared files ICQ
Top Bottom
 Snt Member is Offline
 Posted: 25-11-2008, 00:30 (post 3, #867184)

Junior

Group: Members
Posts: 91
Warn:0%-----
CODE
EAC extraction logfile from 4. December 2003, 21:35 for CD
50 Cent / Get Rich or Die Tryin'

Used drive  : TEAC    CD-W540E  Adapter: 1  ID: 0
Read mode  : Secure with NO C2, accurate stream, disable cache
Combined read/write offset correction : 0
Overread into Lead-In and Lead-Out : No

Used output format : Internal WAV Routines
                    44.100 Hz; 16 Bit; Stereo

Other options      :
    Fill up missing offset samples with silence : Yes
    Delete leading and trailing silent blocks : No
    Installed external ASPI interface


Range status and errors
Selected range
    Filename G:\50cent_get_rich_or_die_trying\CDImage.wav

    Peak level 100.0 %
    Range quality 100.0 %
    CRC 7DB80429
    Copy OK

No errors occured

End of status report


This post has been edited by Snt on 25-11-2008, 00:37
PM Email Poster Shared files ICQ
Top Bottom
 Snt Member is Offline
 Posted: 24-05-2013, 04:17 (post 4, #1076527)

Junior

Group: Members
Posts: 91
Warn:0%-----
50cent_-_Get_Rich_or_Die_Tryin.ape 16 clicks
50cent_-_Get_Rich_or_Die_Tryin.cue 4 clicks
50cent_-_Get_Rich_or_Die_Tryin.log 4 clicks

This post has been edited by Snt on 24-05-2013, 04:17
PM Email Poster Shared files ICQ
Top Bottom
 Гордый Member is Offline
   Posted: 24-05-2013, 06:04 (post 5, #1076533)

proRock
Group: Netlab Soldier
Group: Netlab Soldier
Posts: 24507
Warn:0%-----
Видать эпохальный альбом, раз в раздачах 10 лет!!! :w00t: :nl:
PM
Top Bottom
 Dudtsyn Member is Offline
 Posted: 24-05-2013, 20:34 (post 6, #1076557)

NetLab MDM Maniac
Group: Netlab Soldier
Group: Netlab Soldier
Posts: 4731
Warn:0%-----
Самое главное не забывать и каждые три года чё та подписывать :laugh:
PM Email Poster
Top Bottom
 Snt Member is Offline
 Posted: 25-05-2013, 20:36 (post 7, #1076584)

Junior

Group: Members
Posts: 91
Warn:0%-----
Люди скачивают. Это самое главное.
https://dl.dropboxusercontent.com/u/31659272/snt/2013-05-25.emule.png
PM Email Poster Shared files ICQ
Top Bottom
Topic Options