Pages: (2) 1 [2] ( Show unread post )

> Чем и как записать образ аудиодиска (APE/FLAC-CUE), Вариации на тему.
 Dudtsyn Member is Offline
 Posted: 09-03-2010, 08:52 (post 16, #949339)

NetLab MDM Maniac
Group: Netlab Soldier
Group: Netlab Soldier
Posts: 4731
Warn:0%-----
DrKolob, они все собственно твои.
Тут бы конечно не язвить, а объяснить что к чему, но и объяснение кажется какой-то глупостью. Честное слово. У тебя установлен пишущий DVD-ROM? Ему, операционной системой, присвоена какая буква -Е? F? вот он и есть твой рекордер.
PM Email Poster
Top Bottom
 Michael2000 Member is Offline
 Posted: 18-08-2010, 22:10 (post 17, #978489)

Уже не тот, совсем не тот...
Group: Netlab Soldier
Group: Netlab Soldier
Posts: 7341
Warn:0%-----
Какая-то засада появилась при записи CD из нетлабстандарта в новой версии ImgBern. Натравливаю его на *wv.iso.wv как на образ, а он виснет. Распаковываю- указываю cue - пишет... :(
PM Email Poster Integrity Messenger IM ICQ MSN
Top Bottom
 Гордый Member is Offline
 Posted: 18-08-2010, 22:48 (post 18, #978508)

proRock
Group: Netlab Soldier
Group: Netlab Soldier
Posts: 25071
Warn:0%-----
QUOTE (Michael2000 @ 18-08-2010, 21:10)
Какая-то засада появилась при записи CD из нетлабстандарта в новой версии ImgBern. Натравливаю его на *wv.iso.wv как на образ, а он виснет. Распаковываю- указываю cue - пишет... :(
Сейчас попробовал. всё нормально записалось. Michael2000, может это поможет? -----> http://www.wavpack.com/files/CoreWavPack-1.1.1-Setup.exe
PM
Top Bottom
 Michael2000 Member is Offline
 Posted: 18-08-2010, 22:59 (post 19, #978511)

Уже не тот, совсем не тот...
Group: Netlab Soldier
Group: Netlab Soldier
Posts: 7341
Warn:0%-----
Проинсталил, спасибо. Но сдается мне у меня он был, я такие вещи сразу при установке системы ставлю...
Не помогло :(
PM Email Poster Integrity Messenger IM ICQ MSN
Top Bottom
 kuzen2509
 Posted: 22-08-2011, 13:31 (post 20, #1027715)

Unregistered


Top Bottom
 VinniPuh007 Member is Offline
 Posted: 19-09-2011, 18:46 (post 21, #1030004)

Newbie

Group: Members
Posts: 1
Warn:0%-----
QUOTE (Ally @ 25-01-2007, 15:24)
radik40
Easy CD-DA Extractor. Дополнительных плагинов не нужно, танцев с бубнами по изменению cue файла - тоже, пишет CD напрямую из cue+ape/flac, а также делает рипы с сд и конвертирует музыку из одного формата в другой. К сожалению, не в курсе, как эта программа поведет себя в нерусской винде.
Специально зарегился, чтобы поблагодарить человека за этот пост. Часто приходится нарезать диски из lossless - хоть и лежала давно эта прога - всё руки не доходили, конвертил-резал вышеупомянутыми головняками - NERO, ImgBurn, Burrrn, foobar2000 и пр. Зачем изобретать велосипед, да ещё и с квадратными колёсами? :hi:
PM Email Poster
Top Bottom
 alex45-45
 Posted: 18-03-2015, 10:55 (post 22, #1103300)

Unregistered


Здравствуйте.Подскажите, скачал с сайта диск с расширением ape группы кино, как его правильно записать на аудио CD, есть программа nero10 и easy CD-DA. Не одной программой не могу записать, при открывании CUE файла пишет какие-то иероглифы, что надо изменить: REM GENRE Rock
REM DATE 2002
REM DISCID 32122614
REM COMMENT ExactAudioCopy v1.0b3
PERFORMER "Êèíî"
TITLE "Êîíöåðò â Äóáíå"
FILE "Êèíî - 2002 - Êîíöåðò â Äóáíå. 1987.ape" WAVE
TRACK 01 AUDIO
TITLE "Òðàíêâèëèçàòîð"
INDEX 01 00:00:00
TRACK 02 AUDIO
TITLE "Êàæäóþ íî÷ü"
INDEX 01 05:01:08
TRACK 03 AUDIO
TITLE "Ìû õîòèì òàíöåâàòü"
INDEX 01 08:03:05
TRACK 04 AUDIO
TITLE "Ýòî íå ëþáîâü"
INDEX 00 10:55:14
INDEX 01 11:05:36
TRACK 05 AUDIO
TITLE "Ãîðîä"
INDEX 01 14:37:31
TRACK 06 AUDIO
TITLE "Ñëåäè çà ñîáîé"
INDEX 00 18:09:46
INDEX 01 18:17:34
TRACK 07 AUDIO
TITLE "Ïîñëåäíèé ãåðîé"
INDEX 00 22:22:62
INDEX 01 22:27:09
TRACK 08 AUDIO
TITLE "Ïîïðîáóé ñïåòü âìåñòå ñî ìíîé"
INDEX 01 24:45:38
TRACK 09 AUDIO
TITLE "Ñîëíå÷íûå äíè"
INDEX 00 27:56:15
INDEX 01 27:58:15
TRACK 10 AUDIO
TITLE "Ìàìà, ìû âñå ñîøëè ñ óìà"
INDEX 00 30:36:16
INDEX 01 30:38:16
TRACK 11 AUDIO
TITLE "ß îáúÿâëÿþ ñâîé äîì"
INDEX 00 33:53:53
INDEX 01 33:55:53
TRACK 12 AUDIO
TITLE "Ñïîêîéíàÿ íî÷ü"
INDEX 00 36:16:01
INDEX 01 36:24:01
TRACK 13 AUDIO
TITLE "Àëþìèíèåâûå îãóðöû"
INDEX 00 41:46:06
INDEX 01 41:55:06
TRACK 14 AUDIO
TITLE "Òðîëëåéáóñ"
INDEX 01 44:28:25
TRACK 15 AUDIO
TITLE "Ìû æä¸ì ïåðåìåí"
INDEX 00 46:22:01
INDEX 01 46:24:01
TRACK 16 AUDIO
TITLE "Êîãäà-òî òû áûë áèòíèêîì"
INDEX 00 50:30:65
INDEX 01 50:35:34
TRACK 17 AUDIO
TITLE "Ýëåêòðè÷êà"
INDEX 00 52:54:73
INDEX 01 53:00:73
TRACK 18 AUDIO
TITLE "Èíòåðâüþ (bonus track)"
INDEX 00 57:02:59
INDEX 01 57:12:59
TRACK 19 AUDIO
TITLE "Âîñüìèêëàññíèöà (bonus track)"
INDEX 01 72:23:01
TRACK 20 AUDIO
TITLE "Âðåìÿ åñòü, à äåíåã íåò (bonus track)"
INDEX 00 74:13:62
INDEX 01 74:18:62
Top Bottom
Topic Options Pages: (2) 1 [2]