Pages: (2) 1 [2] ( Show unread post )

   A-Ha - Minor Earth Major Sky (2000), WEA RECORDS, 8573 82183-2, Printed in Germany
 Alexandre ZAM Member is Offline
 Posted: 22-09-2019, 05:08 (post 1, #1121784)

Superman

Group: News makers
Posts: 1028
Warn:0%-----
A-Ha - Minor Earth Major Sky
Артист: A-Ha
Альбом: Minor Earth Major Sky , 2000
Издатель: WEA RECORDS / 8573 82183-2
Жанр: Pop
Формат файла: NL
Ссылка: CD
Нахождение: Torrent

TRACKLIST

1. Minor Earth Major Sky 5:24
2. Little Black Heart 4:36
3. Velvet 4:19
4. Summer Moved On 4:37
5. The Sun Never Shone That Day 4:38
6. To Let You Win 4:23
7. The Company Man 3:14
8. Thought That It Was You 3:49
9. I Wish I Cared 4:21
10. Barely Hanging On 3:55
11. You'll Never Get Over Me 5:38
12. I Won't Forget Her 4:43
13. Mary Ellen Makes The Moment Count 4:53

SPOILER (Images)

SPOILER (Отчёт EAC)

SPOILER (EAC)

SPOILER (DR)

SPOILER (AR LOG)

Публикация по просьбе :nl: :hi:

Собственный рип
Please take a second to encourage releaser for all his hard work, press 'Thanks' button
The following members said 'Спасибо!': drobovik, edenika, worand, arizonadream, minios, mts, ArCanon, Гордый, azur, Siget, shatterhand, doremi, mitay, Cormorant, spiderc@t, nemanoff, ronis
PM
Top Bottom
 Siget Member is Offline
 Posted: 20-10-2019, 11:22 (post 16, #1121987)

incunabulum

Group: News makers
Posts: 5955
Warn:0%-----
Почти незаметное. Вот DR:

Analyzed: A-Ha / Minor Earth Major Sky
--------------------------------------------------------------------------------

DR Peak RMS Duration Track
--------------------------------------------------------------------------------
DR7 -0.18 dB -10.08 dB 5:25 01-Minor Earth Major Sky
DR7 -0.18 dB -8.93 dB 4:36 02-Little Black Heart
DR9 -0.18 dB -11.30 dB 4:19 03-Velvet
DR7 -0.18 dB -9.06 dB 4:37 04-Summer Moved On
DR8 -0.18 dB -9.62 dB 4:39 05-The Sun Never Shines That Day
DR9 -0.18 dB -10.98 dB 4:23 06-To Let You Win
DR8 -0.18 dB -9.57 dB 3:14 07-The Company Man
DR8 -0.18 dB -10.36 dB 3:50 08-Thought That It Was You
DR7 -0.18 dB -8.39 dB 4:21 09-I Wish Cared
DR8 -0.18 dB -9.25 dB 3:56 10-Barely Hanging On
DR7 -0.18 dB -8.91 dB 5:39 11-You'll Never Get Over Me
DR8 -0.18 dB -9.75 dB 4:44 12-I Won't Forget Her
DR7 -0.18 dB -8.75 dB 4:54 13-Mary Ellen Makes The Moment Count


DR7 -0.18 dB -10.04 dB 5:24 01-Minor Earth | Major Sky
DR7 -0.18 dB -8.93 dB 4:33 02-Little Black Heart
DR9 -0.18 dB -11.30 dB 4:19 03-Velvet
DR7 -0.18 dB -9.06 dB 4:37 04-Summer Moved On
DR8 -0.18 dB -9.62 dB 4:39 05-The Sun Never Shone That Day
DR9 -0.18 dB -10.98 dB 4:23 06-To Let You Win
DR8 -0.18 dB -9.57 dB 3:14 07-The Company Man
DR8 -0.18 dB -10.36 dB 3:49 08-Thought That It Was You
DR7 -0.18 dB -8.34 dB 4:21 09-I Wish I Cared
DR8 -0.18 dB -9.25 dB 3:54 10-Barely Hanging On
DR7 -0.18 dB -8.91 dB 5:38 11-You'll Never Get Over Me
DR8 -0.18 dB -9.75 dB 4:43 12-I Won't Forget Her
DR7 -0.18 dB -8.75 dB 4:54 13-Mary Ellen Makes The Moment Count
DR6 0.00 dB -7.10 dB 4:08 14-Minor Earth | Major Sky (Black Dog Mix)
DR7 0.00 dB -8.84 dB 4:14 15-Velvet (Stockholm Mix)
PM
Top Bottom
 Alexandre ZAM Member is Offline
 Posted: 21-10-2019, 02:15 (post 17, #1122004)

Superman

Group: News makers
Posts: 1028
Warn:0%-----
Отсюда вывод: нахе...ра покупать оригиналы, если проще купить сами понимаете что :hi: :) :nl:
PM
Top Bottom
 edenika Member is Offline
 Posted: 10-01-2020, 22:03 (post 18, #1122338)

Always with metal

Group: News makers
Posts: 8133
Warn:0%-----
QUOTE (Alexandre ZAM @ 21-10-2019, 02:15)
Отсюда вывод: нахе...ра покупать оригиналы, если проще купить сами понимаете что :hi: :) :nl:
Я как любитель более тяжёлой музыки не могу ничего добавить, да и то, что имею совсем не оригинал. :)

SPOILER!
PM Email Poster Users Website
Top Bottom
 Siget Member is Offline
 Posted: 10-01-2020, 23:06 (post 19, #1122339)

incunabulum

Group: News makers
Posts: 5955
Warn:0%-----
Уел, сдаюсь :)
PM
Top Bottom
Topic Options Pages: (2) 1 [2]