Buddy Guy ©1972, Hold That Plane!
 borisrad Member is Offline
 Posted: 28-06-2007, 22:25 (post 1, #761550)

Member

Group: News makers
Posts: 238
Warn:0%-----
Buddy Guy - Hold That Plane!
Артист: Buddy Guy
Альбом: Hold That Plane!, 1972
Издатель: Vanguard Records / VMD-79323
Жанр: Blues
Формат файла: eac,wv,cue,covers,tags
Ссылка: CD 12 clicks
Нахождение: eDonkey/Kademlia
Примечание: Audio CD (June 12, 1990)
1. Watermelon Man
2. Hold That Plane
3. I'm Ready
4. My Time After Awhile
5. You Don't Love Me
6. Come See About Me
7. Hello San Francisco
Please take a second to encourage releaser for all his hard work, press 'Thanks' button
The following members said 'Спасибо!': Гордый, retro, blackhorse, OlCh, der spunk, Fyodor, arizonadream
PM Email Poster
Top Bottom
 borisrad Member is Offline
 Posted: 28-06-2007, 22:26 (post 2, #761551)

Member

Group: News makers
Posts: 238
Warn:0%-----
CODE
EAC extraction logfile from 13. March 2007, 23:15 for CD
Buddy Guy / Hold That Plane!

Used drive  : PHILIPS DVDR1660P1  Adapter: 0  ID: 0
Read mode  : Secure with NO C2, accurate stream, disable cache
Combined read/write offset correction : 0
Overread into Lead-In and Lead-Out : No

Used output format : Internal WAV Routines
                    44.100 Hz; 16 Bit; Stereo

Other options      :
    Fill up missing offset samples with silence : Yes
    Delete leading and trailing silent blocks : No
    Native Win32 interface for Win NT & 2000


Range status and errors
Selected range
    Filename C:\Temp\New Folder\Buddy Guy - Hold That Plane! - 1972.wav

    Peak level 75.3 %
    Range quality 100.0 %
    CRC D09452BF
    Copy OK

No errors occured

End of status report
PM Email Poster
Top Bottom
 borisrad Member is Offline
 Posted: 28-06-2007, 22:27 (post 3, #761552)

Member

Group: News makers
Posts: 238
Warn:0%-----
CODE
PERFORMER "Buddy Guy"
TITLE "Hold That Plane!"
FILE "I:\relizes\Buddy Guy - Hold That Plane! - 1972 (eac.wv.cue.covers.tags)\Buddy Guy - Hold That Plane! - 1972.wv" WAVE
  TRACK 01 AUDIO
    TITLE "Herbie Hancock / Watermelon Man"
    PERFORMER "Buddy Guy"
    INDEX 01 00:00:00
  TRACK 02 AUDIO
    TITLE "Hold That Plane"
    PERFORMER "Buddy Guy"
    FLAGS DCP
    INDEX 00 05:15:00
    INDEX 01 05:18:68
  TRACK 03 AUDIO
    TITLE "Willie Dixon / I'm Ready"
    PERFORMER "Buddy Guy"
    FLAGS DCP
    INDEX 00 09:59:43
    INDEX 01 10:02:35
  TRACK 04 AUDIO
    TITLE "Robert Geddins / My Time After Awhile"
    PERFORMER "Buddy Guy"
    FLAGS DCP
    INDEX 00 15:06:03
    INDEX 01 15:09:10
  TRACK 05 AUDIO
    TITLE "Elias McDaniel / You Don't Love Me"
    PERFORMER "Buddy Guy"
    FLAGS DCP
    INDEX 00 19:22:25
    INDEX 01 19:26:25
  TRACK 06 AUDIO
    TITLE "Buddy Guy; Philip Guy / Come See About Me"  ; Philip Guy / Come See About Me"
    PERFORMER "Buddy Guy"
    FLAGS DCP
    INDEX 00 24:56:68
    INDEX 01 25:00:20
  TRACK 07 AUDIO
    TITLE "Robert Geddins / Hello San Francisco"
    PERFORMER "Buddy Guy"
    FLAGS DCP
    INDEX 00 33:38:13
    INDEX 01 33:41:70
PM Email Poster
Top Bottom
 Гордый Member is Offline
   Posted: 28-06-2007, 22:30 (post 4, #761553)

proRock
Group: Netlab Soldier
Group: Netlab Soldier
Posts: 24577
Warn:0%-----
О, Гай, вроде такого не было! Спасибо! :hi:
PM
Top Bottom
Topic Options