Dawn Of Destiny - 2022 - Of Silence
 jocker Member is Offline
 Posted: 18-02-2023, 22:44 (post 1, #1126834)

Металист алкоголик
Forum moderator
Group: Netlab Soldier
Posts: 3639
Warn:0%-----
Dawn Of Destiny - Of Silence
Артист: Dawn Of Destiny
Альбом: Of Silence, 2022
Издатель: El Puerto Records / EPR 043-2
Жанр: Power Metal
Формат файла: NL+
Ссылка: CD 10 clicks
Нахождение: eDonkey/Kademlia
Релиз-группа: Group Icon

Tracklist:

01. We Are Your Voice (8:07)
02. Judas In Me (3:54)
03. Childhood (3:50)
04. Say My Name (4:10)
05. White Mystery (4:27)
06. Not The Way It Is (4:50)
07. Little Flower (3:47)
08. Burning Heart (3:22)
09. Silence (4:26)
10. Run (5:23)
11. The Curse (5:45)
12. Inner Voice (4:26)
13. This Is Our Legacy (7:33)

Band:

Jeanette Scherff - Lead Vocals
Jens Faber - Bass / Backing Vocals/Lead Vocals
Dirk Raczkiewicz - Keyboards and Synths
Veith Offenbächer - Guitar
Philipp Bock - Drums


user posted image

Немцы Dawn Of Destiny, так сказать, "тихой сапой" взяли и выпустили свой самый мелодичный и, наверное, лучший альбом в дискографии. Восьмой, между прочим. Да, в звуке присутствует модерновость, немного поп мелодий, симфо готики и некий крен в сторону позднего Edenbridge и даже немного Nightwish (самую малость). Но с этими заимствованиями группа палку не перегибает, внося много своего фирменного материала. Грудастая Jeanette Scherff как всегда на высоте. Хотя слушатели жалуются на мужской вокал, который больше всего подошёл бы готик метал группе. Открывающий альбом восьмиминутный эпик "We Are Your Voice" как раз и звучит как симфо готик (чем вам не поздняя Sirenia). Но вот дальше идёт пауэр и именно такой, какой мы и любим: мелодичный и разнообразный. Разнообразие песен - краеугольный камень данного альбома. Выделю такие супер хиты как: Judas in Me, Say My Name, Little Flower, Silence, Run, Inner Voice. Хотя песня "Run" в припеве один в один хит классического Edguy "The Headless Game". Ну да ладно, нот ведь всего семь...

SPOILER (LOG)
SPOILER (PICTURES)



Please take a second to encourage releaser for all his hard work, press 'Thanks' button
The following members said 'Спасибо!': Гордый, maiden2221, ArCanon, worand, edenika, mitay, swint68, olegslen
PM Email Poster
Top Bottom
 jocker Member is Offline
 Posted: 18-02-2023, 22:45 (post 2, #1126835)

Металист алкоголик
Forum moderator
Group: Netlab Soldier
Posts: 3639
Warn:0%-----
PM Email Poster
Top Bottom
 Гордый Member is Offline
 Posted: 18-02-2023, 23:01 (post 3, #1126837)

proRock
Group: Netlab Soldier
Group: Netlab Soldier
Posts: 25093
Warn:0%-----
Интересно, там сильная компрессия? Хотелось бы послушать, но выдержат ли уши? :diablo:
PM
Top Bottom
 jocker Member is Offline
 Posted: 18-02-2023, 23:20 (post 4, #1126840)

Металист алкоголик
Forum moderator
Group: Netlab Soldier
Posts: 3639
Warn:0%-----
QUOTE (Гордый @ 18-02-2023, 22:01)
Интересно, там сильная компрессия? Хотелось бы послушать, но выдержат ли уши? :diablo:
УВЫ

foobar2000 1.4 / Замер динамического диапазона (DR) 1.1.1
Дата отчёта: 2023-02-18 22:19:19

--------------------------------------------------------------------------------
Анализ: Dawn Of Destiny / Of Silence
--------------------------------------------------------------------------------

DR Пики RMS Продолжительность трека
--------------------------------------------------------------------------------
DR4 -0.10 дБ -7.18 дБ 8:07 ?-We Are Your Voice
DR5 -0.10 дБ -5.64 дБ 3:54 ?-Judas In Me
DR4 -0.10 дБ -5.30 дБ 3:50 ?-Childhood
DR4 -0.10 дБ -5.53 дБ 4:10 ?-Say My Name
DR4 -0.10 дБ -6.38 дБ 4:27 ?-White Mystery
DR5 -0.10 дБ -5.57 дБ 4:50 ?-Not The Way It Is
DR5 -0.10 дБ -6.95 дБ 3:47 ?-Little Flower
DR4 -0.10 дБ -5.84 дБ 3:22 ?-Burning Heart
DR4 -0.10 дБ -5.87 дБ 4:26 ?-Silence
DR4 -0.10 дБ -6.33 дБ 5:23 ?-Run
DR5 -0.10 дБ -6.12 дБ 5:45 ?-The Curse
DR4 -0.10 дБ -5.73 дБ 4:26 ?-Inner Voice
DR5 -0.10 дБ -6.66 дБ 7:33 ?-This Is Our Legacy
--------------------------------------------------------------------------------

Количество треков: 13
Реальные значения DR: DR4

Частота: 44100 Гц
Каналов: 2
Разрядность: 16
Битрейт: 1011 кбит/с
Кодек: WavPack
================================================================================
PM Email Poster
Top Bottom
Topic Options